CUE-Sheet

Das Cuesheet ['kju:ʃi:t] (engl., etwa: Einsatzplan) ist eine Text-Datei, die normalerweise Metadaten über Abbilder von Compact Discs enthält, die benötigt werden, um diese auf eine CD-R brennen zu können. Entwickelt wurde das Cuesheet-Format um das Jahr 1995 von den Programmierern der Software CDRWIN. Diese unterstützt auch heute noch dieses Format.

Beispiel:

FILE "IMAGE.BIN" BINARY
  TRACK 01 MODE1/2352
    INDEX 01 00:00:00 
Hinweise zu diesem Beispiel: Hier wird die CD-ROM aus der Datei "IMAGE.BIN" generiert. Die Daten dort sind Binärdaten (Rohdaten), und keine Audiodaten.
Es wird ein Track geschrieben (bei Daten-CDs üblich), und zwar im Mode 1. Obwohl dieser Modus nur 2048 Bytes Nutzdaten kennt, liegen die Daten in der Datei offenbar schon mit allen Sektornummern und Fehlerkorrekturdaten vor, und nehmen daher 2352 Bytes pro Sektor in Anspruch.

Manche Audioplayer, so z. B. Foobar2000, unterstützen die Wiedergabe dieser Abbilder, als würde eine normale Audio-CD vorliegen. Dabei finden ggf. weitere Metadaten Anwendung, die zum simplen Brennen einer CD nicht erforderlich sind.

Bin/Cue-Dateien werden oftmals von Programmen, die virtuelle CD-Laufwerke bereitstellen, als Eingabe unterstützt. Mit deren Hilfe lassen sich aus diesen Dateien ISO-Abbilder erstellen.

Im folgenden Beispiel eines Cue-Sheets sind sowohl die Titel der einzelnen Tracks, als auch deren Interpret und die jeweiligen ReplayGain-Werte enthalten.

Beispiel:

PERFORMER "BSO, William Steinberg"
TITLE "Also Sprach Zarathustra - Die Planeten"
REM REPLAYGAIN_ALBUM_GAIN -5.24 dB
REM REPLAYGAIN_ALBUM_PEAK 0.999938
FILE "Also sprach Zarathustra - Die Planeten.wav" WAVE
  TRACK 01 AUDIO
    TITLE "Also sprach Zarathustra - Einleitung"
    PERFORMER "BSO, William Steinberg"
    INDEX 01 00:00:00
    REM REPLAYGAIN_TRACK_GAIN -6.27 dB
    REM REPLAYGAIN_TRACK_PEAK 0.999938
  TRACK 02 AUDIO
    TITLE "Also sprach Zarathustra - Von den Hinterweltlern"
    PERFORMER "BSO, William Steinberg"
    INDEX 01 02:00:28
    REM REPLAYGAIN_TRACK_GAIN +0.93 dB
    REM REPLAYGAIN_TRACK_PEAK 0.724884
    ...

Weblinks


Wikimedia Foundation.

Schlagen Sie auch in anderen Wörterbüchern nach:

  • Cue sheet — Cue sheet, файл cue  файл с метаданными, которые описывают раскладку треков CD или DVD. Файлы cue имеют текстовый формат и, как правило, расширение .cue. Впервые файлы cue sheet появились в программе CDRWIN. Теперь они поддерживаются многими …   Википедия

  • Cue sheet — cue Pour les articles homonymes, voir CUE. Icône Vlc d un fichier cue Un fichier cue sheet est un fichier texte ayant l extension .cue et contenant les métadonnées d une …   Wikipédia en Français

  • Cue sheet — Una hoja cue, cue sheet o archivo.cue, es un archivo Unicode (archivo de texto) que especifica cómo se distribuyen las pistas de datos en un disco compacto. Las hojas cue comúnmente tienen la extensión .cue . Originalmente usados por el programa… …   Wikipedia Español

  • Cue sheet — A cue sheet is a form or template (paper or electronic) that lists information about cues. Examples include: Cue sheet (computing), a text file that details the layout of tracks on a compact disc. Cue sheet (theatrical), a list of theatrical cues …   Wikipedia

  • cue sheet — noun Etymology: cue (II) : a detailed outline of a television or radio program giving cues and timing for each item * * * a detailed listing of cues for use by a stage manager or the technicians during the production of a play or broadcast. [1925 …   Useful english dictionary

  • CUE Sheet — Das Cuesheet [ kju:ʃi:t] (engl., etwa: Einsatzplan) ist eine Text Datei, die normalerweise Metadaten über Abbilder von Compact Discs enthält, die benötigt werden, um diese auf eine CD R brennen zu können. Entwickelt wurde das Cuesheet Format um… …   Deutsch Wikipedia

  • cue sheet — F/A/V A sheet having several columns for notations of footage, fades. volume levels, and equalizations which are used in mixing sound tracks where each column usually represents one track …   Audio and video glossary

  • cue sheet — a detailed listing of cues for use by a stage manager or the technicians during the production of a play or broadcast. [1925 30] * * * …   Universalium

  • cue sheet — (Theater) list of instructions and explanation for the director s or technician s use when preparing for a performance …   English contemporary dictionary

  • Cue sheet — PP A list of music used in a production for the purposes of obtaining usage rights …   Audio and video glossary

Share the article and excerpts

Direct link
Do a right-click on the link above
and select “Copy Link”

We are using cookies for the best presentation of our site. Continuing to use this site, you agree with this.